<?xml version="1.0" standalone="no"?>
<!DOCTYPE svg PUBLIC "-//W3C//DTD SVG 1.1//EN" "http://www.w3.org/Graphics/SVG/1.1/DTD/svg11.dtd" >
<svg xmlns="http://www.w3.org/2000/svg">
<metadata>Generated by IcoMoon</metadata>
<defs>
<font id="diego-fonts" horiz-adv-x="1024">
<font-face units-per-em="1024" ascent="960" descent="-64" />
<missing-glyph horiz-adv-x="1024" />
<glyph unicode="&#x20;" d="" horiz-adv-x="512" />
<glyph unicode="&#xe600;" d="M139.162 272.179c0 17.715 0 35.379 0 53.094 0.563 2.099 1.229 4.301 1.382 6.502 4.352 54.323 18.227 106.291 37.171 157.133 27.29 73.37 63.078 142.49 103.578 209.203 51.354 84.685 104.653 168.141 157.133 252.16 2.253 3.482 5.171 6.81 8.243 9.779 14.182 13.722 31.642 14.592 46.694 1.894 5.888-4.864 11.315-10.65 15.565-16.896 54.477-78.95 109.568-157.594 162.867-237.414 44.288-66.304 83.098-135.782 111.514-210.739 19.354-51.046 32.819-103.629 33.28-158.515 0.205-22.682-1.894-45.517-3.379-68.198-3.174-48.077-18.278-92.211-42.394-133.683-27.187-46.592-63.488-85.299-104.499-119.91-70.605-59.597-151.296-79.411-241.51-61.389-46.131 9.216-88.678 27.29-127.181 53.811-27.29 18.79-55.603 38.093-77.517 62.515-37.325 41.677-60.57 92.006-72.243 146.995-3.738 17.664-5.888 35.789-8.704 53.658zM216.934 413.133c-0.666-0.051-1.536-0.154-2.304-0.256-1.331-3.379-3.174-6.554-3.994-9.984-10.65-44.288-19.814-88.678-15.462-135.014 5.837-61.901 28.621-116.685 70.605-162.099 71.578-77.517 160.614-106.496 264.499-88.32 16.128 2.714 31.744 8.397 48.794 13.107-198.554 55.859-315.75 185.549-362.138 382.566zM1015.091 742.656c-1.126-6.707-1.997-13.517-3.533-20.019-11.059-42.65-35.226-76.186-74.342-96.41-34.253-17.818-68.147-9.83-100.301 9.421-56.883 34.406-68.71 96.717-58.675 149.402 7.936 41.574 25.754 79.309 45.722 116.122 16.333 29.901 33.587 59.392 50.842 88.781 2.918 4.864 7.885 8.499 11.93 12.698 4.045 0 8.038 0 12.032 0 4.813-5.274 10.752-9.984 14.541-15.974 19.251-29.798 38.4-59.955 56.525-90.522 15.974-26.778 29.747-54.938 38.042-85.35 2.867-10.65 4.864-21.453 7.168-32.256 0.051-11.93 0.051-23.859 0.051-35.891z" />
<glyph unicode="&#xe601;" d="M6.4 242.893c61.594 46.285 121.498 92.416 182.579 136.806 44.749 32.614 92.467 60.109 148.89 68.352 41.523 5.99 81.408-3.174 120.883-13.158 71.629-18.074 143.206-31.078 217.651-22.17 23.194 2.714 47.616 0.41 70.963-3.174 13.312-2.048 27.853-8.806 37.837-17.971 28.211-25.344 22.272-69.325-12.954-82.944-28.365-11.008-59.392-15.514-89.702-20.531-23.654-3.84-48.026-4.045-75.93-6.298 44.954-19.405 85.709-37.018 126.566-54.374 44.083-18.637 81.562-6.144 112.179 27.392 22.989 25.19 43.52 52.736 64.256 79.974 19.866 26.061 42.291 48.128 74.701 57.498 24.576 7.117 42.906-7.27 37.53-31.846-16.486-76.698-41.472-149.709-96.307-209.101-36.045-38.963-82.688-55.347-132.557-65.69-79.667-16.384-159.13-9.574-238.797 1.485-70.451 9.933-141.005 19.61-211.814 25.856-55.552 4.915-110.182-2.97-160.563-29.594-6.81-3.686-11.981-5.069-18.637 1.741-51.661 52.275-103.782 104.141-155.699 156.262-1.126 0.973-1.843 2.56-1.075 1.485zM708.813 263.219c26.163 8.243 50.125 14.336 73.165 23.194 27.802 10.547 43.827 32.307 44.698 61.798 0.922 30.618-11.315 55.962-38.656 72.346-3.738 2.15-7.526 4.301-10.598 6.042 1.331 20.992 3.84 41.165 3.686 61.286-0.205 44.339-22.221 75.571-62.208 93.082-22.63 9.83-46.694 16.435-69.786 25.344-4.352 1.69-9.83 7.731-9.882 11.878-0.614 46.95-0.358 93.901-0.256 140.8 0.051 1.587 0.973 3.021 1.485 4.608 40.397-1.382 66.714-23.040 73.728-62.259 1.792-9.677 5.222-13.107 14.899-12.544 13.67 0.614 27.392 0.154 40.909 0.154 4.198 66.304-41.216 109.517-130.458 124.365 0 12.749 0 25.805 0 40.141-10.445 0-19.354 0-29.901 0 0-13.158 0-26.163 0-37.12-23.962-7.168-47.514-10.24-67.379-20.787-50.688-26.675-71.68-71.475-66.253-127.949 4.762-49.050 35.482-77.824 79.309-94.31 16.896-6.4 34.56-10.65 53.862-16.486 0-19.661 0-39.987 0-60.314 0-20.275 0-40.55 0-65.178-26.88 4.25-51.712 7.885-76.237 12.339-2.918 0.614-6.093 5.837-6.912 9.37-2.253 10.24-3.328 20.634-5.12 32.666-17.152 0-35.021 0-54.477 0 0-8.141 0-16.589 0-27.341-64.563 15.36-127.488 25.549-192.666-3.686-4.557 20.941-10.035 39.731-12.698 59.034-26.573 191.027 101.939 372.48 289.792 409.958 197.12 39.219 390.4-87.398 431.514-283.75 16.23-77.363 7.68-152.576-24.934-224.717-1.69-3.942-3.994-8.755-7.322-10.445-34.406-17.664-54.17-49.562-77.312-78.336-16.896-21.043-34.406-41.626-52.838-61.286-21.709-23.398-48.486-26.163-77.517-15.411-11.008 4.096-21.862 8.858-33.638 13.517zM608.205 764.672c0-49.869 0-98.816 0-147.866-48.077 5.018-77.824 34.765-76.544 75.674 1.331 42.752 30.515 70.912 76.544 72.192zM639.437 437.555c0 36.659 0 73.728 0 114.483 20.019-8.704 38.912-14.848 55.552-24.883 25.344-15.053 37.325-51.61 28.16-80.23-1.28-3.789-7.066-8.858-10.854-8.96-23.603-0.717-47.206-0.41-72.858-0.41z" />
<glyph unicode="&#xe602;" d="M999.987 492.032c5.786 10.752 11.008 21.811 12.8 34.714 1.075 8.141 0.922 16.077-5.171 21.043-6.861 5.376-13.21 1.792-19.098-3.533-7.322-6.502-10.496-16.384-14.438-25.856-4.506-10.906-8.858-21.914-13.773-32.512-3.123-6.554-7.475-9.728-13.414-3.328-5.274 5.683-11.571 11.418-18.125 4.454-6.758-6.963-3.84-16.384-0.717-24.576 1.843-5.069 4.147-9.933 6.758-14.49 3.021-5.53 3.635-11.008 1.792-17.306-10.752-35.635-24.525-69.427-41.421-101.376-3.072-5.683-7.014-13.414-14.029-10.291-6.349 2.611-5.12 11.059-5.018 17.408 0.307 34.867 7.475 68.25 15.411 101.171 14.643 61.030 46.797 107.264 85.402 148.070 7.578 8.038 15.206 15.923 18.483 28.16 1.792 6.912 0.973 13.21-3.328 18.432-4.557 5.325-9.933 4.557-15.36 1.894-6.042-3.021-10.752-8.448-14.899-14.336-7.987-11.059-16.435-12.698-26.419-3.738-5.427 4.864-11.878 10.957-18.432 3.738-7.475-8.55-2.15-17.408 1.997-25.446 2.918-5.53 7.322-10.854 4.25-18.125-7.424-17.92-15.974-35.123-29.184-47.718-8.858-8.499-16.998-4.762-19.558 8.55-1.894 9.779-0.768 19.814 1.178 29.645 7.219 39.936 22.221 76.39 34.97 113.766 3.891 11.418 7.219 22.886 6.707 35.43-0.256 7.014-2.099 13.363-7.936 16.282-6.451 3.072-11.52-0.717-15.718-6.298-5.581-7.219-7.475-16.538-9.728-25.498-5.325-20.787-5.53-21.197-22.477-15.667-6.349 2.15-11.827 1.69-15.514-5.53-3.84-7.731-1.434-13.926 3.174-19.405 3.379-3.84 7.168-7.27 9.83-11.674 4.813-7.424 2.867-23.194-2.611-25.088-16.077-5.734-30.976 10.138-28.16 30.003 3.482 24.678 9.37 48.691 16.077 72.397 4.147 14.080 8.243 28.467 6.656 43.878-1.075 9.882-2.304 20.838-12.339 23.347-9.677 2.458-14.797-6.502-19.558-14.95-5.734-10.803-5.939-24.32-10.394-35.994-0.205 0.563-0.307 0.717-0.614 1.178 0.102-7.066-0.41-14.029-1.536-20.838-3.942-37.632-5.632-73.626-13.363-108.544-1.331-6.195-1.946-14.592-7.987-16.384-6.451-1.946-7.168 7.066-10.035 11.418-3.174 4.71-6.81 7.68-11.776 5.53-6.093-2.714-7.885-9.062-7.629-16.077 0.41-9.011 3.584-17.050 6.554-25.242 3.277-9.114 6.861-18.33 6.195-28.723-0.512-6.502-2.611-12.442-8.192-13.926-1.741-0.512-3.328-0.358-4.608 0.154-7.526-5.683-19.661-4.096-23.398 9.37-4.147 14.49-9.83 29.901-12.698 45.466-0.819 0.614-1.638 1.28-2.56 1.792 0.205-0.205-0.461-0.051-0.973 0.051-0.666-0.87-1.434-1.638-1.997-2.56-2.918-4.301-5.222-11.008-6.758-17.101 1.638-20.992 5.12-41.933 5.018-63.078 0-4.045-0.87-7.373-2.406-9.933 0.87-8.653 0.205-17.766-2.406-27.136-11.008-41.472-25.6-80.794-45.67-116.941-2.816-4.966-5.376-11.93-11.469-9.933-6.144 2.202-6.349 9.83-7.066 16.538-2.765 27.341 1.741 50.432 22.63 66.253 9.37 7.117 15.974 18.022 19.046 31.693 1.638 7.219 2.918 15.104-3.533 19.2-5.888 3.686-10.086-1.946-13.875-7.168-4.659-6.093-9.267-12.237-14.131-18.074-1.946-2.202-4.762-3.942-7.475-1.536-2.202 2.048-1.434 5.018-1.126 7.731 0.614 3.226 1.229 6.554 1.434 9.882 0.614 6.707 1.434 14.182-5.581 16.538-6.144 2.202-10.65-2.253-13.363-8.448-3.277-7.322-6.451-14.95-8.090-22.938-5.478-25.344-8.294-51.149-9.37-77.312-1.229-32.256 5.786-62.669 14.131-92.774 2.714-10.291 3.84-18.79-1.997-30.618-5.325-10.291-17.715-24.832-4.915-40.755 1.075-1.434 0.768-4.25 1.075-6.554 2.816-28.928-7.424-51.712-22.784-72.090-2.56-3.277-5.478-7.322-9.165-2.816-3.482 4.454-4.25 10.189-0.512 15.053 2.202 2.662 5.376 4.198 7.885 6.605 13.926 13.21 13.414 30.464-2.048 41.216-4.198 3.021-7.834 5.171-6.81 12.442 0.973 6.246 3.072 10.189 9.062 9.523 3.738-0.358 5.837 2.816 6.451 7.066 0.768 4.813-2.048 7.424-5.222 8.448-8.090 2.714-8.499 9.062-7.68 18.074 1.536 16.435 0.768 33.075-0.717 49.766-2.611 31.488-5.939 62.874-2.611 94.669 4.915 46.694 25.344 83.917 49.101 118.989 20.787 30.669 35.635 64.563 38.144 104.909 4.608 74.342 21.862 142.643 63.13 200.038 5.325 7.424 8.346 17.306 7.219 27.853-1.536 13.466-10.598 18.483-20.019 11.11-5.99-4.71-9.165-12.237-12.544-19.661-4.096-9.114-8.038-18.534-12.8-27.443-3.226-6.298-6.81-14.694-14.49-12.288-7.27 2.253-7.68 11.213-9.267 18.842-3.482 17.562-0.102 35.584-2.611 53.146-0.973 7.168-2.714 14.848-9.933 16.23-7.578 1.587-11.674-5.018-14.387-12.288-1.741-4.454-2.355-9.626-3.174-14.336-4.915-26.112 0.973-50.842 6.758-75.469 4.506-19.302 5.12-37.734-0.102-57.19-5.018-18.944-7.987-38.605-9.984-58.573-2.304-22.989-2.304-46.848-9.728-68.659-4.403-13.261-8.448-30.72-22.323-30.054-13.824 0.666-15.821 18.944-17.869 31.795-1.075 6.349-1.792 12.749-2.611 19.098-0.973 2.15-1.69 4.608-1.894 7.27-0.973 12.186-1.075 23.962-0.717 35.789-0.205 18.688 1.075 37.222 3.942 55.501 0.102 1.178 0.205 2.458 0.307 3.686 1.638 20.941 13.005 72.602-20.275 63.744-3.123-14.95-3.43-35.277-6.554-44.442-1.843-5.171-5.581-8.806-9.728-10.65-1.587-24.371-4.762-48.589-2.97-73.165 0.563-6.81 3.277-16.282-2.15-20.275-6.656-5.171-9.472 5.837-14.029 9.421-5.837 4.557-11.674 10.291-18.534 3.789-6.246-6.042-5.581-14.438-3.379-22.938 4.301-15.974 12.954-28.006 22.63-39.219 33.331-38.707 31.898-82.483 15.974-125.184-9.267-24.627-23.757-26.214-37.222-3.994-22.682 37.325-30.72 80.691-36.454 125.798-4.454 35.482 1.69 64.41 22.733 89.344 13.67 16.128 19.302 37.581 23.245 59.494 5.171 28.979 5.325 58.317 2.355 87.757-1.638 15.616-3.226 30.976-10.701 44.339-3.635 6.554-8.346 12.39-15.616 11.11-8.090-1.331-11.366-9.062-12.8-17.459-2.202-13.158-1.638-26.47 0.512-39.731 4.813-29.85 6.349-59.597-4.915-88.166-3.584-9.011-5.376-23.91-15.565-22.016-11.469 2.15-10.189 17.357-10.803 28.774-1.434 25.498 1.792 51.2-2.099 76.493-1.28 9.267-2.765 18.278-12.237 18.944-8.909 0.819-13.466-6.963-14.899-16.077-7.219-46.49-8.038-92.774 6.093-137.626 3.84-12.288 6.81-23.91 6.349-36.915-1.229-37.325 2.406-74.342 8.755-110.848 2.509-14.848 8.755-29.952-10.701-34.099-1.536-0.307-2.714-2.816-4.096-4.352-9.933-11.469-12.646-10.445-16.486 6.144-5.427 22.938-8.448 45.978-9.114 69.222-1.075 1.69-2.099 3.635-2.56 5.99-4.403 22.938-19.354 43.52-35.226 30.566 0.358-2.355 0.614-4.762 0.563-7.373-1.178-34.355 3.994-67.482 11.725-100.25 1.536-6.861 4.25-15.002-2.867-19.149-6.451-3.891-11.366 2.253-15.36 7.526-5.581 7.322-10.24 15.667-15.77 22.989-3.123 4.198-7.834 5.888-12.544 3.328-5.018-2.714-5.786-8.448-5.069-14.080 2.611-22.886 11.674-56.678 38.758-64.102 14.182-3.891 22.989-15.974 27.546-32.051 3.43-12.595 6.81-25.498 8.243-38.707 1.075-10.598 6.093-24.832-4.71-31.693-10.752-6.81-16.077 5.786-21.914 14.029-0.614 0.819-1.229 1.536-1.946 2.355-4.045 4.096-8.55 6.81-13.875 4.045-5.222-2.714-7.168-8.602-7.526-14.848-0.614-11.059 2.509-21.094 9.523-28.314 7.168-7.578 15.206-14.029 22.784-21.094 6.656-5.939 13.517-11.469 19.456-18.278 4.864-5.53 5.683-31.078 0.87-34.048-9.523-6.246-13.005 6.144-18.586 11.366-2.15 1.894-3.584 5.12-5.171 7.68-21.709 36.864-37.53 77.414-51.866 118.989-9.267 27.034-14.541 54.374-10.65 84.275 4.198 32.614 2.611 65.382-2.97 97.587-3.328 18.995-6.246 38.144-9.011 57.344-5.939 40.397-11.622 80.691-6.758 122.317 3.84 32.512 8.858 64.563 14.95 96.461 2.202 12.186 3.584 26.47-9.165 30.822-13.005 4.403-19.2-8.038-22.477-20.787-3.021-11.52-4.454-23.706-6.093-35.738-3.174-23.552-4.352-47.616-11.059-70.195-6.4-21.402-18.33-24.73-32.717-10.138-9.933 10.086-14.643 23.603-18.125 38.349-3.686 16.077-5.069 32.922-11.776 47.718-3.533 7.578-8.499 13.875-16.384 12.237-8.192-1.69-11.315-10.291-10.957-18.688 2.406-48.845 9.37-95.488 48.435-122.982 17.818-12.544 29.798-29.85 36.557-53.76 8.96-32.307 14.387-65.536 18.176-99.072 1.946-16.845 2.15-34.406-0.614-51.456-0.973-6.195-2.099-14.234-8.55-15.462-5.939-1.024-8.294 6.195-10.701 11.264-8.704 17.869-13.107 37.786-18.842 57.139-2.304 8.294-5.734 16.128-14.080 15.053-8.909-1.28-12.186-9.574-12.032-19.149 0.205-38.861 9.318-73.83 34.406-99.43 10.906-11.059 19.149-23.552 25.088-38.81 16.077-40.602 30.259-82.381 48.845-121.19 15.309-31.949 11.725-64.922 12.032-98.304 0.051-3.84-0.563-8.038-4.045-9.523h-0.051c-2.662-4.864-7.014-7.885-12.134-7.885-7.578-7.373-15.155-14.746-22.733-22.17-0.102-2.304-0.512-4.352-1.126-6.042 4.454-9.626 7.168-20.582 11.469-30.157 3.584-8.090-1.178-13.875-9.114-12.237-3.635 0.717-7.578 2.048-10.138 4.762-23.757 25.702-45.875 52.838-45.21 95.795 0.666 2.611 0.614 5.53 0.358 8.55-4.557 13.21-9.677 25.805-17.357 35.174-0.358 0.461-0.666 0.87-1.024 1.229-2.202-8.090-6.451-15.616-12.749-21.094 4.864 17.357 5.069 17.715-10.803 23.603-5.888 2.048-9.318 6.298-12.083 12.442-26.317 58.829-46.438 120.525-61.696 184.832-4.454 18.842-2.97 34.458 10.65 47.616 8.806 8.755 15.872 20.224 17.408 34.867 1.587 14.49-5.325 20.787-16.691 16.077-8.294-3.379-13.517-11.059-18.637-18.995-5.939-8.806-10.547-7.629-13.158 3.277-1.229 5.325-2.304 10.752-2.97 16.282-4.301 37.888-7.782 75.878-9.165 114.278-0.768 21.453-1.485 43.418-9.523 63.488-2.56 6.502-5.53 13.722-12.8 12.698-7.322-0.922-9.011-8.96-9.83-16.026-2.56-20.941-2.048-41.984 0.512-63.027 3.994-33.382 0.768-37.888-25.754-35.533-5.683 0.512-11.366 0.307-14.387-6.707-3.174-7.578-0.614-14.438 3.891-19.507 3.226-3.738 7.219-7.68 11.418-8.96 29.594-8.602 35.738-35.891 36.608-67.379 0.41-10.394 1.946-22.784-6.144-29.184-8.858-7.014-14.541 5.12-21.402 9.626-0.41 0.205-0.768 0.563-1.126 0.87-5.632 4.096-11.878 8.192-17.664 1.946-6.451-6.963-2.816-15.411 0.614-22.835 7.68-15.974 19.661-23.962 34.56-26.829 9.523-1.741 17.869-5.683 21.35-17.818 5.171-17.715 10.24-35.533 15.104-53.504 0.666-2.611 3.123-7.68-2.15-6.349-6.81 1.587-10.035-3.584-13.722-8.499-6.042-7.885-11.674-6.042-15.616 2.202-4.762 10.035-8.55 20.89-12.646 31.283-6.451 15.974-11.059 33.126-21.709 46.029-4.045 4.813-8.294 9.318-14.438 6.4-5.939-2.714-7.885-8.96-8.653-15.821-1.485-13.414 2.662-25.037 8.038-36.301 11.418-23.962 22.989-48.026 34.202-72.090 5.581-12.134 10.701-24.627 13.056-38.246 0.717-4.301 1.741-9.677-1.843-12.39-4.096-3.174-6.451 2.099-8.96 4.915-4.403 4.915-8.141 10.598-12.851 14.95-4.966 4.915-11.008 9.779-17.306 4.045-6.4-5.786-4.352-14.182-1.894-21.402 5.325-15.718 14.131-28.774 23.757-40.55 58.778-72.192 123.136-135.782 196.762-184.525 40.038-26.573 82.586-40.397 127.642-19.712 32.768 14.899 65.28 14.592 98.202 3.226 71.782-24.627 141.926-20.992 209.715 18.176 19.354 11.264 37.939 24.627 56.269 38.093 38.4 28.416 79.309 47.411 124.006 54.886 10.189 1.434 21.248 6.758 21.094 21.555-0.205 14.746-11.93 11.93-20.173 13.414-9.37 1.638-13.67 6.554-7.987 17.818 9.933 20.070 19.661 40.038 32.461 57.651 6.554 8.909 13.722 13.619 23.808 13.619 10.496-0.102 21.146 1.229 30.31 8.294 6.451 5.018 11.827 11.571 10.291 21.658-1.485 11.059-9.421 10.496-16.23 10.394-11.827-0.205-14.541 6.144-10.189 18.739 9.677 27.136 21.76 52.582 36.198 76.339 4.045 6.554 9.472 9.83 16.128 11.366 8.499 1.741 17.254 2.714 25.037 7.885 4.813 3.277 7.578 8.192 7.066 15.002-0.819 7.526-5.478 9.626-10.906 10.342-2.714 0.461-5.376 0.205-8.192 0.461-13.466 0.666-16.64 6.502-9.882 20.89 6.502 14.029 14.234 27.136 21.402 40.653zM173.21 156.365c-5.376-4.608-10.189-4.915-15.667 1.178-13.517 14.899-27.494 29.133-40.192 45.056-20.173 25.498-24.832 56.986-25.6 90.624-0.358 15.667 12.134 23.296 16.282 37.888 3.738-11.827 7.782-23.501 11.213-35.482 12.954-44.186 32-84.531 52.582-124.006 2.099-4.25 8.294-9.37 1.382-15.258zM435.2 408.166c-1.28 15.462 3.533 29.389 8.653 43.008 3.277 9.011 7.117 17.664 11.878 29.542 7.526-24.064 13.619-44.954 25.805-62.054 2.406-3.379 3.072-7.578-1.741-8.397-9.267-1.536-15.206-9.574-22.323-15.309-12.083-9.779-20.634-4.813-22.272 13.21zM521.421 221.542c-4.352-1.638-6.502-8.090-6.81-13.67-0.614-21.094-2.714-41.984-0.614-62.976 1.075-12.186-7.066-27.597-17.613-31.334-11.469-4.147-16.64 5.734-21.965 14.694-3.379 5.683-2.918 10.496 3.379 12.595 1.741 0.717 3.533 1.178 5.222 1.946 5.888 2.816 14.438 5.12 11.725 14.643-2.304 8.448-9.267 2.765-14.182 0.87-4.506-1.638-9.114-2.509-12.851 1.997-2.458 3.123-3.021 7.168-1.536 10.803 2.509 6.246 7.68 4.557 12.083 5.478 7.629 1.69 19.405-5.888 21.658 9.421 2.099 14.541 3.226 30.669-11.264 39.014-9.779 5.786-3.738 9.83 1.434 13.107 12.595 7.68 22.886 18.176 29.082 33.792 3.584 9.37 6.195 19.763-1.075 27.802-6.758 7.526-14.746 3.84-21.709-0.87-5.939-3.84-11.264-9.37-17.050-13.67-12.851-9.472-23.654-3.021-25.395 15.309-1.587 17.306 2.15 32.461 12.083 45.875 18.944 25.446 20.736 30.464 25.856 56.166 28.467-25.242 40.653-60.262 43.622-101.222 1.075-14.797 0.154-29.85 0.307-44.851 0.154-14.592 0.973-29.184-14.387-34.918zM846.438 495.616c5.683-17.818 5.325-35.84 3.021-54.118-5.12-40.090-15.616-78.899-18.586-119.45-0.666-8.96-0.87-17.613 0.307-26.47 4.352-35.994-9.984-63.642-27.443-94.362-0.102 0.973-0.205 1.792-0.358 2.714-5.069-7.782-10.598-15.155-16.077-21.862-1.638-8.602-6.042-14.336-17.408-13.722-3.584 0.102-7.27-4.147-11.008-6.042-5.376-2.611-10.906-3.277-15.002 1.126-6.195 0.41-12.339 5.325-13.978 13.21-1.997 10.189-1.075 19.814 1.946 29.645 1.075 3.43 5.581 12.39 1.434 14.592-5.018 2.918-11.264 3.021-17.562 2.458-7.219-14.336-16.23-27.085-26.931-38.042-4.147-4.352-9.318-3.738-11.059 3.021-2.202 8.141-5.018 17.92 3.738 23.45 9.984 6.195 12.8 7.885 9.37 12.134-1.229 1.075-2.406 2.304-3.379 3.738-0.973 0.922-2.099 2.048-3.43 3.277-5.581 5.222-1.843 11.366-0.512 16.538 12.032 46.182 28.262 90.419 46.234 133.53 9.062 21.658 18.33 43.418 30.106 63.334 14.541 25.139 30.822 46.848 56.474 54.886 7.219 2.253 13.363 7.322 18.125 14.387 3.072 4.403 4.608 9.626 2.867 15.462-1.894 6.298-6.349 7.168-11.162 7.68-19.456 2.202-20.275 5.018-13.773 27.187 6.451 22.17 19.814 33.485 38.912 39.578 0.154-9.165-2.816-16.23-4.966-23.296-8.346-28.211-8.96-56.525 0.102-84.582z" />
<glyph unicode="&#xe603;" d="M81.152 657.050c0.256-5.837 0.973-9.728 0.563-13.466-1.024-8.090 2.15-12.954 9.882-15.155 9.062-2.509 11.725-8.704 10.394-17.51-2.765-18.944 2.253-35.84 14.182-50.534 4.762-5.99 11.52-10.291 17.408-15.411 2.048 1.382 4.147 2.662 6.246 3.891-1.843 6.042-2.202 12.954-5.581 17.869-10.394 14.848-18.125 30.157-14.797 53.555 4.71-4.71 9.984-7.424 10.035-10.291 0.563-22.579 15.36-37.99 26.47-55.45 2.099-3.123 3.328-6.963 3.584-10.752 0.512-5.581-2.509-12.595-0.205-16.896 5.222-10.035 9.882-22.221 24.218-22.989 11.725-0.614 22.938-11.52 35.686-1.434 1.894 1.741 7.578-1.075 12.339-2.048 0.461-3.84 1.075-7.629 1.536-12.134 3.43-0.717 6.912-1.331 10.342-2.099 15.309-2.611 28.723-8.602 36.915-22.426 9.626-15.872 23.91-21.043 41.318-20.070 10.138 0.614 13.107-2.714 15.155-13.312 3.174-15.923-1.792-24.781-15.36-31.078-7.885-3.686-11.11-9.984-9.933-18.688 0.461-3.584 0.973-7.68-0.256-10.906-7.578-19.405 3.891-31.898 14.694-45.722 8.397-10.598 13.978-23.603 21.402-35.226 1.638-2.509 5.069-4.403 7.987-5.888 3.584-1.792 7.578-2.714 11.315-4.403 20.48-9.984 32.154-24.218 28.058-49.101-2.355-14.080-0.461-28.979-0.256-43.52 0.102-5.99-2.15-12.902 6.912-15.718 1.485-0.307 2.611-7.219 1.587-10.496-5.018-17.818-6.195-33.997 8.448-48.691 3.635-3.789 3.84-13.107 2.458-19.2-6.861-29.85 11.059-49.869 27.648-69.939 11.315-13.517 25.344-24.986 45.722-20.378 2.765 0.614 6.4 1.894 7.424 3.789 0.922 1.894-0.205 6.81-1.946 7.782-16.23 9.523-20.531 22.323-12.339 39.322 0.717 1.485 0.154 3.482 0.154 4.506-7.629 3.584-14.746 6.912-22.323 10.496 6.298 8.602 10.906 14.797 16.384 22.323-5.274 1.792-8.038 2.202-10.24 3.584-1.997 1.178-5.325 4.096-4.915 5.018 1.075 2.406 3.482 5.222 5.888 6.093 5.478 1.69 11.52 1.894 16.947 3.891 15.821 5.888 29.85 13.312 37.478 30.618 4.71 11.008 13.926 20.122 22.17 29.082 6.81 7.578 8.499 15.309 5.274 24.781-1.997 5.478-3.635 11.622-3.328 17.306 0.973 11.11 10.086 17.203 23.091 16.589 22.118-1.075 33.587 8.397 35.738 30.515 0.563 4.608 0.768 9.114 0.87 13.619 0.973 19.917 5.274 37.99 20.275 52.89 5.069 5.018 6.042 14.080 8.96 21.402-1.69-0.614-3.482-1.075-5.171-1.587-8.141 8.192-15.77 16.896-24.474 24.32-3.43 3.174-9.165 5.376-13.978 5.222-20.122-0.307-39.475 1.485-58.214 10.189-7.014 3.277-11.366 6.502-11.11 14.49 0 3.584-0.512 7.322-0.87 10.906-2.048 16.384-10.957 25.19-27.136 23.962-12.083-0.717-18.842 3.482-24.934 13.875-4.966 8.704-12.954 15.974-20.224 24.218-11.827-14.182-32.922-13.773-42.342-1.997-10.752 13.107-35.379 14.797-43.981 0.614-15.002-25.088-35.174-14.541-56.115-10.803-1.331 14.131-2.611 28.928-4.147 44.339-8.755 1.69-17.459 3.533-26.47 5.325 3.328 10.701 6.451 20.941 9.574 31.027-1.382 0.973-2.816 1.792-4.096 2.765-9.984-6.605-20.378-12.8-29.901-20.019-10.496-8.141-22.579-4.915-30.566-0.102-8.090 4.915-10.65 16.589-7.322 28.109 8.755 31.283 29.901 50.278 65.075 48.998 13.005-0.41 26.112-0.102 40.704-0.102-2.816-16.486 5.581-23.706 20.736-25.446 0 1.843 0.512 4.25-0.102 6.246-6.195 20.48 5.376 32.102 20.685 42.086 11.725 7.834 22.682 14.49 28.621 30.208 4.864 13.21 18.79 25.088 31.488 32.819 16.179 9.574 29.696 21.197 42.752 34.099 3.174 3.174 9.933 2.918 15.258 4.096 3.482 0.717 6.912 1.28 11.52 2.048-2.355 2.918-2.714 3.84-3.328 4.25-4.25 2.56-8.806 4.762-12.493 7.936-0.512 0.461 2.97 8.090 4.403 8.038 5.683-0.102 13.312-0.205 17.101-3.686 9.472-8.55 17.306-4.301 26.061 0.256 2.56 1.382 5.837 1.69 8.602 2.458-0.051-3.174 1.229-7.68-0.307-9.472-9.83-10.24-3.738-13.67 5.888-16.23 6.963-1.997 13.926-3.994 20.736-5.888 1.28 1.024 2.509 1.894 3.686 3.021-2.714 4.198-4.71 9.37-8.397 12.442-4.403 3.84-10.394 5.99-19.405 10.854 8.090 3.226 12.442 4.966 16.64 6.81 6.042 3.021 9.779 16.998 4.454 19.046-18.176 7.066-18.688 22.272-18.995 38.963-11.725-4.506-22.272-8.602-35.021-13.466 0.819 9.984 1.229 16.998 1.69 24.678-9.472 2.509-18.534 5.222-27.75 7.014-11.674 2.253-20.992-5.837-21.299-17.715-0.051-1.843-0.41-3.738 0-5.53 2.662-14.899-2.099-23.296-18.227-26.419-5.734-1.126-9.779-9.984-14.848-15.309-4.096-4.198-8.243-8.294-13.926-14.182-1.638 5.478-2.355 6.861-2.304 8.090 2.509 17.050-2.099 26.214-21.914 26.982-13.824 0.563-19.61 12.698-20.122 28.416 20.582 10.854 41.933 22.016 64.666 33.843 6.912-35.584 18.893-1.946 27.853-7.475-1.997 4.71-3.379 7.936-3.789 8.704 9.626 6.195 17.562 11.213 25.242 16.538 12.339 8.653 36.966 6.144 48.947-6.451-5.99-3.277-11.674-6.502-17.51-9.677-5.376-3.021-10.752-5.99-18.074-10.086 14.029-3.379 25.805-7.014 37.581-9.011 3.482-0.512 9.984 2.406 11.11 5.274 3.072 7.373 7.578 9.472 14.592 8.294 9.677-1.331 14.336 3.43 16.282 13.414-9.216 2.15-16.128 6.861-13.619 18.125 0.205 1.28-0.922 3.482-1.997 4.813-17.766 19.302-67.584 25.395-88.627 9.318-5.427-4.352-5.478-15.514-8.806-25.856-4.403 1.792-12.902 2.611-15.923 7.014-8.602 12.493 8.294 15.309 11.418 23.859-27.494 6.554-35.686 4.813-39.987-5.786 3.584-5.632 6.246-9.882 8.909-14.080-4.813-2.202-9.421-4.915-14.438-6.502-10.394-3.226-20.89-6.298-31.539-8.96-2.867-0.768-6.144-0.154-10.24-0.154-1.229 5.734-2.099 10.65-3.174 15.718 28.262 5.171 28.262 5.171 39.322 22.528-4.045-1.126-8.909-1.126-11.878-3.533-13.773-11.008-27.187-9.626-37.786 4.301-6.298 8.397-26.778 11.93-36.659 5.683-7.936-5.018-15.155-11.059-22.682-16.691 5.939-9.011 28.365 8.397 23.45-15.821 8.806-5.12 24.525 5.325 29.286-14.285-14.182 2.918-26.214-0.768-39.117 9.83-10.598 8.602-28.621 8.090-43.571 11.469-1.894 0.41-3.942 0.41-7.014 0.922 161.69 123.802 429.414 139.059 623.514-31.693-5.478-4.403-10.291-8.909-15.667-12.595-6.861-4.71-15.002-8.090-20.941-13.824-2.202-2.202-1.28-10.803 1.178-13.875 5.325-6.144 12.698-10.496 21.402-17.51 2.509 0.717 8.704 2.611 15.974 4.915 1.178-7.936 2.099-14.848 2.97-21.606-1.075-1.024-1.843-2.202-2.406-1.997-23.859 5.12-43.725 1.382-55.347-23.194-1.178-2.509-6.093-4.71-9.216-4.608-16.691 0.922-22.323-7.782-21.299-23.603 2.816-1.28 5.888-2.662 9.677-4.454-1.075-4.659-1.894-8.653-2.816-12.442-14.899 0-28.723 0.819-42.291-0.512-3.738-0.307-9.062-5.786-10.291-10.086-7.066-22.323 4.096-37.018 27.136-37.018 3.635 0 7.373 0.256 10.957 0 10.086-0.512 17.254 1.075 21.914 12.8 4.096 10.598 13.414 19.2 20.787 28.416 1.485 1.69 4.352 2.816 6.758 3.174 9.37 2.611 18.842 4.506 27.034 6.4 13.21-9.882 28.006-21.146 46.080-34.765-8.806-2.253-14.592-3.84-20.224-5.325 4.71-9.677 20.992-11.725 24.422-2.355 2.099 5.478 1.997 11.878 3.174 19.814-5.837 3.43-14.182 6.707-20.378 12.186-5.99 5.274-9.677 12.902-15.155 20.275 24.781 5.837 45.875-10.138 50.074-32.102 1.792-9.472 9.984-17.613 15.514-26.419 1.178 0.512 2.56 1.075 3.789 1.485 1.587 6.4 2.304 13.312 5.325 18.893 2.56 5.325 7.475 9.114 14.131 16.384 1.587-10.394 1.536-17.408 3.84-23.091 3.891-9.984 10.086-19.098 22.886-16.64 13.363 2.458 18.842-3.226 21.453-15.462 1.843-8.602 5.427-16.794 8.704-26.419-23.654-0.922-44.749-4.557-63.232 12.8-11.827 10.906-29.082 2.918-31.539-13.875-3.686 1.024-7.373 1.638-10.854 2.816-5.376 1.997-10.906 4.403-16.384 6.195-9.626 2.714-21.709 2.509-28.16 8.448-5.632 5.325-5.018 17.562-7.526 28.365-21.811-3.686-45.517 1.229-67.584-10.957-6.707-3.686-16.794-1.126-25.293-2.15-6.502-0.819-13.005-1.997-19.456-4.096-13.926-4.506-20.89-13.517-18.534-29.389 0.563-4.301-3.738-10.906-7.526-13.978-12.032-9.677-25.139-17.92-37.171-27.597-3.994-3.123-8.806-9.011-8.192-12.8 0.819-5.274 6.502-9.626 10.086-14.182 1.485 0 3.123 0 4.608 0-3.174-5.325-6.451-10.547-9.677-15.77-0.87-1.434-2.611-3.174-2.509-4.557 1.178-18.125-6.195-37.888 11.981-52.89 9.984-8.397 18.381-18.995 26.010-29.798 7.322-10.24 16.794-10.65 27.494-9.626 8.397 0.819 16.794 2.458 25.293 2.56 9.216 0.154 16.794 1.434 24.986 7.322 5.632 3.942 19.405 4.915 23.603 0.87 10.394-10.086 22.17-10.957 34.765-11.725 2.253-0.102 4.352-1.075 6.451-1.638 0.614-0.973 1.485-1.843 1.28-2.509-9.779-33.024 5.683-59.802 22.989-85.606 7.475-11.213 8.704-20.89 0.461-31.898-3.226-4.096-5.53-9.318-7.475-14.285-3.533-9.779-4.864-19.712 4.352-27.29 7.475-5.99 10.086-13.414 9.011-22.682-2.048-17.408 1.382-32.922 14.080-46.182 3.328-3.277 4.198-9.677 4.762-14.797 0.666-7.578 0.154-15.309 0.154-23.501 5.222-0.614 9.114-1.024 13.005-1.485-112.896-153.395-375.706-257.178-622.131-124.826-255.334 136.909-315.853 431.616-224.87 633.037zM818.637 748.851c-10.394 17.664-19.354 32.41-29.798 50.022-3.584-2.355-11.213-4.608-13.978-9.626-4.762-8.909 4.915-11.622 10.24-15.974 3.533-3.021 6.349-6.758 11.776-12.595-16.742-1.229-17.869-9.114-15.974-20.275 14.643 2.355 30.771-3.84 37.734 8.448zM747.981 748.851c13.056-3.226 20.89 6.093 28.416 13.568 5.427 5.427 0.563 13.158-7.834 13.568-12.442 0.666-21.914-11.315-20.582-27.136zM510.515 711.168c-0.461 1.536-0.768 3.123-1.28 4.659-8.448-3.43-16.998-6.912-26.88-11.059 15.36-16.384 19.2 4.71 28.16 6.4zM818.637 748.851c-7.014-12.288-23.091-6.093-37.683-8.499-1.894 11.213-0.819 19.046 15.974 20.275-5.427 5.837-8.243 9.626-11.776 12.595-5.325 4.403-15.002 7.117-10.24 15.974 2.816 5.018 10.394 7.27 13.978 9.626 10.394-17.562 19.354-32.307 29.747-49.971zM747.981 748.851c-1.331 15.821 8.090 27.802 20.531 27.085 8.397-0.41 13.312-8.090 7.834-13.568-7.424-7.373-15.309-16.742-28.365-13.517zM510.515 711.168c-8.96-1.69-12.8-22.784-28.16-6.4 9.882 4.147 18.432 7.578 26.88 11.059 0.512-1.536 0.819-3.123 1.28-4.659z" />
<glyph unicode="&#xe604;" d="M1015.296 494.336c-16.384 252.006-217.805 453.325-469.862 470.118v1.024h-66.918v-1.024c-252.006-16.742-453.427-218.112-470.17-470.118h-1.024v-67.021h1.024c16.742-252.006 218.163-453.478 470.17-469.914v-1.28h66.97v1.28c252.058 16.384 453.427 217.907 469.862 469.914h1.331v67.021h-1.382zM323.379 855.398c-32.512-42.957-59.802-97.229-79.104-159.027h-100.915c43.674 68.352 106.138 123.853 180.019 159.027v0zM108.186 629.043h118.323c-9.267-42.394-14.797-87.757-16.742-134.707h-133.734c3.635 47.667 14.746 92.672 32.154 134.707v0zM76.032 427.366h133.683c1.946-47.002 7.475-92.416 16.742-134.707h-118.272c-17.408 41.984-28.518 86.989-32.154 134.707v0zM143.36 225.229h100.557c19.712-61.798 46.643-116.019 79.514-158.976-73.933 35.072-136.397 90.675-180.070 158.976v0zM478.515 27.75c-69.325 18.483-128.819 92.723-164.966 197.478h164.966v-197.478zM478.515 292.659h-184.013c-9.574 41.984-15.462 86.989-17.459 134.707h201.472v-134.707zM478.515 494.336h-201.472c1.997 47.667 7.885 92.672 17.459 134.707h184.013v-134.707zM478.515 696.371h-164.966c36.147 104.755 95.59 179.149 164.966 197.427v-197.427zM880.589 696.371h-100.557c-19.712 61.798-46.643 116.122-79.514 159.027 73.984-35.174 136.448-90.675 180.070-159.027v0zM545.434 893.798c69.376-18.278 128.819-92.672 165.018-197.427h-165.018v197.427zM545.434 629.043h184.064c9.523-42.035 15.104-87.040 17.357-134.707h-201.421v134.707zM545.434 427.366h201.421c-1.946-47.718-7.834-92.723-17.357-134.707h-184.064v134.707zM545.434 27.75v197.478h165.018c-36.198-104.755-95.59-178.995-165.018-197.478v0zM700.57 66.253c32.512 43.315 59.802 97.178 79.514 158.976h100.557c-43.674-68.301-106.138-123.904-180.070-158.976v0zM915.763 292.659h-118.272c9.216 42.291 14.746 87.706 16.742 134.707h133.683c-3.584-47.718-14.746-92.723-32.154-134.707v0zM814.234 494.336c-1.997 46.95-7.526 92.314-16.742 134.707h118.272c17.408-42.035 28.621-87.040 32.205-134.707h-133.734z" />
<glyph unicode="&#xe605;" d="M1015.245 460.339c-0.819-279.296-226.458-503.91-503.45-501.504-279.91 2.509-501.862 224.973-500.941 502.426 0.922 279.194 226.509 503.859 503.45 501.453 279.859-2.406 501.862-224.922 500.941-502.374zM454.81 387.174c-49.562 49.92-96.41 97.178-143.565 144.077-23.706 23.603-44.954 23.603-69.018 0.512-16.282-15.616-32.307-31.386-48.282-47.411-23.142-23.552-23.501-47.667-0.256-70.81 74.803-75.264 149.709-150.272 224.922-225.024 23.859-23.91 46.694-24.013 70.349-0.256 114.637 114.176 229.018 228.864 343.501 343.245 1.946 2.099 3.942 4.096 5.734 6.246 14.746 18.176 15.565 41.062-0.358 58.317-19.558 20.941-40.141 41.267-61.542 60.314-17.254 15.36-35.328 14.438-53.709 0.051-4.864-3.789-9.267-8.346-13.568-12.698-84.173-84.838-168.294-169.728-254.208-256.563z" />
<glyph unicode="&#xe606;" d="M454.81 387.174c85.914 86.835 170.035 171.725 254.259 256.614 4.301 4.352 8.704 8.909 13.568 12.698 18.33 14.387 36.454 15.309 53.709-0.051 21.402-19.046 41.984-39.373 61.542-60.314 15.923-17.254 15.104-40.141 0.358-58.317-1.792-2.15-3.789-4.198-5.734-6.246-114.483-114.381-228.915-229.018-343.501-343.245-23.654-23.757-46.438-23.654-70.349 0.256-75.213 74.752-150.118 149.76-224.922 225.024-23.296 23.091-22.938 47.206 0.205 70.758 15.974 16.026 32 31.795 48.282 47.411 24.064 23.091 45.312 23.091 69.018-0.512 47.155-46.899 94.003-94.157 143.565-144.077z" />
<glyph unicode="&#xe607;" d="M1009.101 409.037c-8.704-8.141-17.459-16.23-26.112-24.269 4.147-3.379 8.448-7.066 12.595-10.496-25.395-37.683-60.826-60.467-100.659-77.414-50.483-21.146-103.424-31.13-157.798-33.434-32.051-1.229-64.307-1.587-96.358 0-40.755 1.997-80.435 10.24-118.221 26.368-32.819 13.978-33.229 14.131-52.992-14.848-13.619-20.070-25.907-41.062-39.27-61.286-5.734-8.858-11.52-18.381-23.45-21.862-3.482 21.146-6.554 41.523-10.24 61.798-6.656 36.915-25.549 66.765-54.989 90.163-15.974 12.698-31.539 25.805-47.104 38.758-8.141 6.758-12.493 14.080-8.909 25.702 3.533 11.213-0.102 13.824-11.827 12.083-40.96-5.888-77.67-21.043-111.565-45.261-38.707-27.597-79.002-52.89-119.142-78.438-12.442-7.834-26.675-13.005-40.038-19.558-1.075 0.973-1.997 1.894-3.021 2.867 1.946 5.376 3.482 11.213 5.99 16.538 16.742 33.894 40.858 62.515 65.024 90.982 12.954 15.258 26.982 29.44 40.858 43.93 7.936 8.192 9.114 13.722 2.611 23.45-9.011 13.67-18.842 26.88-27.853 40.55-23.040 35.43-39.885 73.626-49.92 114.739-0.307 1.536-0.41 3.226-0.717 5.786 17.203-15.718 33.126-31.13 50.176-45.67 35.123-29.696 73.728-53.299 119.347-63.488 26.726-5.888 53.555-3.686 80.077 1.331 45.005 8.602 89.856 17.664 134.656 27.238 10.138 2.15 20.070 6.195 29.286 10.906 3.84 1.894 7.782 7.885 7.834 11.93 0 3.328-5.734 6.656-9.011 9.984-0.205 0.256-0.563 0.256-0.87 0.41-29.030 10.189-25.702 11.11-15.411 35.226 9.626 22.682 9.779 43.93-0.512 66.099-6.707 14.592-11.52 29.952-18.278 47.616 22.989-12.339 45.363-20.89 62.925-37.171 18.842-17.613 38.042-35.379 54.528-55.245 24.525-29.952 55.962-41.728 93.338-45.056 69.325-6.246 137.779-17.357 202.342-45.21 15.565-6.707 30.874-14.592 45.261-23.398 38.093-23.245 75.725-47.155 113.306-71.219 8.602-5.53 16.128-12.8 24.166-19.302-0.051-4.045-0.051-7.885-0.051-11.827zM894.925 431.667c-0.154-11.878 10.701-22.784 22.63-22.528 11.469 0.102 22.067 10.394 22.374 22.118 0.358 11.725-10.394 22.835-22.323 23.040-11.725 0.256-22.682-10.65-22.682-22.63z" />
<glyph unicode="&#xe608;" d="M996.403 398.49c-10.189 8.397-21.606 16.538-28.672 27.29-18.842 29.184-46.797 33.331-76.032 26.112-40.499-9.933-80.282-23.296-119.91-36.762-37.478-12.646-74.035-6.861-111.514 3.072 11.469 6.707 23.194 12.288 35.533 14.438 37.427 6.349 75.264 10.394 112.538 17.408 23.194 4.25 46.848 9.37 65.741 25.856-58.726-16.742-118.067-28.416-179.354-31.232 3.482 4.557 7.475 7.885 12.083 9.165 32 9.011 63.898 18.893 96.41 25.907 53.555 11.571 89.549 45.21 116.019 90.317 11.418 19.558 18.995 41.574 10.496 65.638-4.762-10.342-6.605-22.374-13.619-27.904-37.325-29.645-82.278-40.755-128.205-51.149-1.075 9.165-1.843 16.435-2.714 24.166 35.328 7.27 72.090 7.27 104.141 30.618-3.738 0.666-4.966 1.178-5.888 0.87-2.714-0.922-5.427-1.997-7.936-3.277-25.242-13.107-52.173-17.971-80.128-16.23-7.475 0.358-14.49 4.659-21.76 7.168 3.43 5.581 6.605 11.418 10.291 16.845 15.36 22.426 38.144 41.37 35.738 72.294-0.666 7.987-4.762 15.821-7.219 23.552-6.554-48.23-6.4-48.384-21.35-68.813-5.734-7.885-12.851-14.797-19.354-21.965-8.704-9.523-17.459-15.821-31.181-7.936-6.758 3.84-15.309 5.12-23.194 6.349-52.941 7.987-98.253-11.008-140.544-40.55-12.851-8.96-25.856-17.715-38.81-26.573l-4.096 5.939c46.541 33.126 92.979 66.355 139.418 99.584-1.075 1.69-2.355 3.43-3.533 5.171-50.534-33.587-101.069-67.226-151.552-100.915-1.382 1.638-2.56 3.174-3.84 4.762 9.574 9.523 18.022 20.378 28.774 28.16 38.195 27.494 77.414 53.504 115.558 81.050 9.779 7.014 17.203 17.203 25.651 26.010-1.638 1.69-3.277 3.379-4.915 5.171-62.208-32.102-108.544-88.32-173.363-116.838 3.226 7.936 7.27 15.104 13.261 19.712 42.394 32.512 86.272 63.283 127.488 97.178 39.475 32.358 76.646 67.482 114.33 102.042 15.411 14.131 26.010 31.539 27.699 52.326-15.002-17.562-27.955-37.734-45.414-52.378-67.738-56.883-136.858-112.077-205.67-167.731-18.842-15.155-38.144-29.696-57.293-44.544-1.382 1.536-2.867 2.97-4.198 4.454 4.045 4.864 7.526 10.342 12.288 14.49 89.395 77.722 179.149 155.034 268.032 233.37 9.574 8.499 13.926 22.938 20.736 34.611-1.894 1.178-3.789 2.355-5.632 3.482-3.584-4.198-8.038-7.885-10.598-12.749-19.661-37.376-53.709-60.979-84.787-86.886-59.955-50.125-121.242-98.765-182.63-146.995-16.077-12.698-30.362-30.003-58.522-31.949 10.394 11.93 17.152 21.862 26.061 29.338 87.296 74.035 175.002 147.507 262.349 221.389 13.158 11.11 24.934 23.45 37.325 35.328l-3.174 3.635c-7.782-5.53-15.923-10.701-23.296-16.742-21.862-17.818-43.52-35.738-65.024-53.965-73.318-62.003-146.227-124.314-219.699-186.061-12.954-10.854-27.699-19.61-41.626-29.286-2.253 2.918-4.506 5.786-6.707 8.704 104.243 96.154 209.254 191.334 323.84 276.275-24.269-0.512-42.854-12.851-59.802-27.034-32.614-27.187-64.256-55.757-96.461-83.558-55.603-48.077-111.258-96.102-167.117-143.974-11.059-9.523-22.989-17.92-34.509-26.829-1.843 1.946-3.738 3.891-5.632 5.837 4.454 6.656 7.731 14.541 13.517 19.763 16.128 14.694 33.28 28.211 49.971 42.394 67.738 57.805 135.475 115.558 202.957 173.67 9.626 8.243 17.613 18.381 26.522 27.648-1.331 1.587-2.56 3.174-3.738 4.813-16.896-10.24-35.635-18.125-50.227-30.874-80.794-71.68-160.563-144.589-240.947-216.73-13.158-11.776-27.955-21.658-41.882-32.41-2.355 1.946-4.659 3.891-7.014 5.734 3.021 6.963 4.454 15.462 9.421 20.634 55.142 57.702 110.95 114.739 166.195 172.339 10.138 10.547 18.483 22.835 27.699 34.304-1.997 1.69-4.045 3.328-6.042 5.018-25.395-24.678-51.558-48.794-76.134-74.291-48.23-50.125-95.232-101.325-143.565-151.347-7.526-7.782-19.354-11.418-29.235-16.845-1.843 1.69-3.686 3.43-5.53 5.12 2.662 7.526 3.43 16.742 8.397 22.272 45.875 51.302 92.774 101.939 138.957 153.19 10.598 11.725 19.558 25.088 29.286 37.683-1.792 1.536-3.686 3.174-5.376 4.762-10.752-9.011-22.784-16.794-32.051-27.238-40.090-45.056-79.258-91.034-119.142-136.243-16.64-18.944-33.843-37.274-51.712-54.938-3.277-3.226-11.008-1.792-16.64-2.458 1.638 4.966 2.202 10.803 5.12 14.797 35.123 47.718 70.707 94.925 105.83 142.592 9.626 13.158 17.971 27.29 26.931 40.96-2.048 1.331-4.045 2.816-6.042 4.25-26.931-31.949-55.245-62.925-80.589-96.102-25.088-32.768-39.629-73.114-71.526-101.376 18.534 44.851 49.050 84.224 62.72 133.325-4.301-1.126-5.939-1.024-6.298-1.69-23.859-45.773-48.333-91.238-70.81-137.574-6.451-13.568-13.363-22.784-28.058-27.085-11.827-3.482-22.579-10.701-34.355-14.541-7.475-2.509-43.571 183.142-44.493 255.181-7.987-2.918-14.899 2.918-16.589-2.714-3.584-12.032 21.76-99.328 23.45-111.872 8.55-64.563 25.958-124.314 20.736-147.763-2.918 0.666-51.098 244.378-68.557 307.661l-6.093-19.046c13.005-41.011 67.328-254.771 60.826-291.328 0-7.475-1.587-13.312-4.301-18.125-0.256-5.53-0.87-11.264-2.611-17.357-11.469-39.987-32-77.158-53.248-113.92-0.154-7.578-0.307-15.002-0.358-22.579 0-0.717-0.051-5.632-0.307-12.237 15.258-20.429 31.642-39.885 51.2-56.576 23.501-20.173 54.938-33.587 80.998-51.917 2.253-1.126 4.608-2.048 6.861-3.021 8.858-4.096 19.149-9.216 23.91-16.947 12.851-20.275 25.088-41.574 33.843-63.949 8.858-22.835 17.408-43.571 44.032-50.125 3.891-1.024 7.219-5.427 10.189-8.858 28.262-31.59 63.949-48.845 105.728-51.507 16.282-1.126 33.075 2.202 49.203 5.171 9.933 1.843 12.493 11.674 4.096 16.128-23.398 12.442-26.317 35.379-31.59 56.525-4.198 16.998-11.315 30.31-27.136 37.632-27.034 12.39-54.579 23.757-81.664 35.942-8.755 4.045-16.896 9.318-25.344 13.824 0.819 2.56 1.587 5.12 2.355 7.475 10.394-0.768 21.606 0.563 30.925-2.97 23.91-9.114 47.667-8.55 67.942 5.12 22.784 15.155 43.315 9.728 64.768 0.819 9.011-3.738 17.562-8.704 25.958-13.67 14.541-8.653 28.826-17.766 43.162-26.624 1.229 1.28 2.406 2.56 3.635 3.891-14.797 12.39-29.594 24.832-44.39 37.325 1.331 1.638 2.714 3.226 4.147 4.915 5.581-3.328 11.725-5.888 16.691-9.984 19.763-16.64 38.554-34.56 59.034-50.432 12.954-9.984 26.47-21.402 45.363-19.2-28.928 8.755-45.158 28.979-53.094 58.675 12.186-2.56 23.45-6.758 33.485-13.005 14.182-8.806 23.808-27.494 45.517-19.046 1.587 0.717 4.966-2.458 7.219-3.891 34.611-24.115 73.267-29.542 113.818-23.91 22.323 3.123 39.782 15.206 46.797 37.888 7.27 23.040-0.051 42.957-18.893 56.525-15.718 11.264-33.126 20.48-50.944 27.904-15.565 6.451-32.768 9.114-49.203 13.517 6.195 3.686 12.339 4.198 18.33 4.71 36.915 3.277 69.683-10.65 102.707-24.422 47.514-19.763 96.87-32.768 149.35-33.382-2.867 29.594 23.296 18.432 35.789 26.47 1.075 20.787 6.298 25.139 32.256 28.774 6.042 0.717 13.875 3.277 16.845 7.782 13.722 20.224 4.403 67.226-14.285 82.739zM769.331 520.038c34.355 15.718 69.222 30.618 105.216 46.387 6.502-15.462 0.973-27.597-9.933-37.376-33.69-30.413-74.138-34.406-116.429-30.566-0.922 1.69-1.741 3.328-2.765 4.966 7.987 5.581 15.206 12.595 23.91 16.589z" />
<glyph unicode="&#xe609;" d="M641.075 428.134c15.258-6.4 25.856-1.382 36.147 9.933 15.411 17.101 31.386 34.048 48.947 49.203 11.11 9.728 24.525 17.459 38.093 23.45 20.122 8.909 39.066 4.454 55.194-10.65 2.611-2.304 5.171-4.762 7.578-7.424 21.862-23.398 45.517-44.442 74.291-59.136 2.304-1.075 3.584-3.942 5.325-5.888-2.202-1.536-4.608-4.454-6.758-4.352-11.93 1.024-24.525 1.075-35.789 4.506-35.123 10.598-70.093 4.71-105.114 1.024-10.342-1.075-18.842-6.912-24.422-15.667-6.963-11.11-14.643-22.118-19.507-34.202-9.114-22.579-24.525-38.298-46.95-46.694-38.912-14.797-72.243-37.376-101.069-67.277-13.722-14.387-28.877-27.494-44.032-40.397-27.085-23.194-54.016-46.694-88.422-60.518 13.67-22.016 6.605-41.318-7.066-59.085-14.848-19.302-30.31-38.298-45.619-57.498-1.024-1.178-1.946-2.611-3.226-3.482-14.643-10.086-29.389-20.378-46.080-31.795 1.638 7.117 2.099 13.875 4.762 19.712 7.27 15.821 15.462 30.976 23.194 46.49 1.434 2.816 2.202 5.99 3.174 9.114-0.768 0.307-1.434 0.614-2.202 1.024-1.997-2.918-3.942-5.888-5.888-8.909-0.819 0.205-1.638 0.41-2.458 0.512 0.614 3.686 0.666 7.475 1.843 11.008 0.614 1.997 2.611 3.686 4.352 5.12 13.875 11.11 16.845 13.978-3.021 27.085-2.816 1.894-8.55 1.178-12.032-0.41-34.918-16.384-69.53-33.075-104.192-49.818-2.918-1.178-5.734-2.406-10.035-1.894 1.946 1.997 3.686 4.198 5.837 6.093 15.923 14.592 32.41 28.621 47.616 43.725 4.864 5.12 8.653 13.21 9.216 20.019 1.69 26.010 8.090 49.818 23.91 71.014 19.507 25.907 38.246 52.378 57.293 78.899 1.638 2.202 3.174 4.608 5.222 7.578-5.069 1.075-9.626 2.202-15.462 3.277 3.994 6.298 7.424 11.776 10.445 16.486-24.218 9.984-48.998 7.68-73.83 5.888-3.123-0.205-6.298-0.512-11.315-0.819 4.813 7.475 8.653 13.619 12.646 19.61 6.042 9.216 6.144 18.176 3.84 29.082-7.68 36.813-14.336 73.728-19.814 110.797-2.918 19.968-3.43 40.346-3.942 60.416-0.358 10.906 2.15 21.811 2.048 32.768-0.205 5.837-1.485 13.056-4.864 17.715-21.504 29.645-43.622 58.778-65.894 87.859-5.683 7.322-5.12 13.363 1.178 19.661-14.131 17.203-33.126 31.13-34.304 58.112 5.376-2.304 9.011-3.891 13.312-5.837-5.478 15.974-16.896 29.286-17.101 49.357 7.322-4.096 12.595-7.066 18.739-10.496-8.858 18.227-19.507 35.482-19.149 59.034 10.035-9.421 18.074-16.947 26.163-24.422-13.875 25.088-29.901 49.152-30.31 78.797 1.024 0.666 2.15 1.229 3.174 1.792 9.984-13.363 19.968-26.726 30.003-40.038-3.226 17.971-17.203 33.075-9.626 53.76 13.363-18.125 26.675-36.25 39.936-54.374-3.533 16.23-15.258 29.747-12.134 48.026 59.648-75.418 138.701-132.557 194.253-211.814-0.307 6.144-0.563 11.674-0.87 17.203 1.434 0.154 2.714 0.41 4.045 0.563 12.288-26.982 24.627-53.914 36.403-79.667 10.65 39.117 19.507 80.077 11.264 122.982-3.226 16.947-2.458 34.304 6.502 52.070 7.014-9.984 13.414-18.944 19.661-27.904 0.922 0.461 1.69 0.768 2.509 1.075-1.946 5.325-3.635 10.752-5.888 15.872-2.611 5.939-6.144 11.315-8.499 17.306-5.683 14.797-0.154 25.088 14.746 28.416 0.819 5.376 1.638 10.65 2.458 16.384 13.875-1.946 19.61-12.237 26.522-21.606-5.939 29.645-13.056 58.931-10.342 91.034 13.056-7.987 17.562-19.661 22.374-31.078 4.71-11.418 9.062-22.989 15.821-34.099-1.536 12.442-3.021 24.883-4.557 37.325-1.229 9.574-2.867 19.098-3.635 28.672-0.205 3.021 1.485 6.246 2.406 9.523 2.816-2.099 7.066-3.584 8.294-6.349 7.526-16.998 14.182-34.355 21.402-51.405 18.125-41.882 30.464-85.299 36.915-130.253 1.638-11.366 1.587-22.989 2.253-33.485 4.352 0 9.728 0.819 14.643-0.358 2.048-0.41 5.018-5.325 4.506-7.578-3.891-15.77 4.198-29.491 7.219-43.981 12.493-59.494 23.040-119.245 20.275-180.429-1.024-23.91-7.885-46.080-22.528-65.28z" />
<glyph unicode="&#xe902;" d="M1024 352l-192 192v288h-128v-160l-192 192-512-512v-32h128v-320h320v192h128v-192h320v320h128z" />
<glyph unicode="&#xe903;" d="M0-64h512v1024h-512v-1024zM320 832h128v-128h-128v128zM320 576h128v-128h-128v128zM320 320h128v-128h-128v128zM64 832h128v-128h-128v128zM64 576h128v-128h-128v128zM64 320h128v-128h-128v128zM576 640h448v-64h-448zM576-64h128v256h192v-256h128v576h-448z" />
<glyph unicode="&#xe908;" d="M1018.17 668.11l-286.058 286.058c-9.334 9.334-21.644 7.234-27.356-4.666l-38.354-79.904 267.198-267.198 79.904 38.354c11.9 5.712 14 18.022 4.666 27.356zM615.384 824.616l-263.384-21.95c-17.5-2.166-32.080-5.898-37.090-28.752-0.006-0.024-0.012-0.042-0.018-0.066-71.422-343.070-314.892-677.848-314.892-677.848l57.374-57.374 271.986 271.99c-5.996 12.53-9.36 26.564-9.36 41.384 0 53.020 42.98 96 96 96s96-42.98 96-96-42.98-96-96-96c-14.82 0-28.852 3.364-41.384 9.36l-271.988-271.986 57.372-57.374c0 0 334.778 243.47 677.848 314.892 0.024 0.006 0.042 0.012 0.066 0.018 22.854 5.010 26.586 19.59 28.752 37.090l21.95 263.384-273.232 273.232z" />
<glyph unicode="&#xe909;" d="M384 960v-96c73.482 0 144.712-14.37 211.716-42.71 64.768-27.394 122.958-66.632 172.948-116.624s89.228-108.18 116.624-172.948c28.342-67.004 42.712-138.238 42.712-211.718h96c0 353.46-286.54 640-640 640zM384 768v-96c94.022 0 182.418-36.614 248.9-103.098 66.486-66.484 103.1-154.878 103.1-248.902h96c0 247.422-200.576 448-448 448zM480 576l-64-64-224-64-192-416 25.374-25.374 232.804 232.804c-1.412 5.286-2.178 10.84-2.178 16.57 0 35.346 28.654 64 64 64s64-28.654 64-64-28.654-64-64-64c-5.732 0-11.282 0.764-16.568 2.178l-232.804-232.804 25.372-25.374 416 192 64 224 64 64-160 160z" />
<glyph unicode="&#xe90a;" d="M986.51 922.51c-49.988 49.986-131.032 49.986-181.020 0l-172.118-172.118-121.372 121.372-135.764-135.764 106.426-106.426-472.118-472.118c-8.048-8.048-11.468-18.958-10.3-29.456h-0.244v-160c0-17.674 14.328-32 32-32h160c0 0 2.664 0 4 0 9.212 0 18.426 3.516 25.456 10.544l472.118 472.118 106.426-106.426 135.764 135.764-121.372 121.372 172.118 172.118c49.986 49.988 49.986 131.032 0 181.020zM173.090 0h-109.090v109.090l469.574 469.572 109.088-109.088-469.572-469.574z" />
<glyph unicode="&#xe927;" d="M832 64h-640v128l192 320 263-320 185 128v-256zM832 480c0-53.020-42.98-96-96-96-53.022 0-96 42.98-96 96s42.978 96 96 96c53.020 0 96-42.98 96-96zM917.806 730.924c-22.212 30.292-53.174 65.7-87.178 99.704s-69.412 64.964-99.704 87.178c-51.574 37.82-76.592 42.194-90.924 42.194h-496c-44.112 0-80-35.888-80-80v-864c0-44.112 35.888-80 80-80h736c44.112 0 80 35.888 80 80v624c0 14.332-4.372 39.35-42.194 90.924zM785.374 785.374c30.7-30.7 54.8-58.398 72.58-81.374h-153.954v153.946c22.984-17.78 50.678-41.878 81.374-72.572zM896 16c0-8.672-7.328-16-16-16h-736c-8.672 0-16 7.328-16 16v864c0 8.672 7.328 16 16 16 0 0 495.956 0.002 496 0v-224c0-17.672 14.326-32 32-32h224v-624z" />
<glyph unicode="&#xe941;" d="M512 960c-282.77 0-512-229.23-512-512s229.23-512 512-512 512 229.23 512 512-229.23 512-512 512zM320 448c0 106.040 85.96 192 192 192s192-85.96 192-192-85.96-192-192-192-192 85.96-192 192zM925.98 276.524v0l-177.42 73.49c12.518 30.184 19.44 63.276 19.44 97.986s-6.922 67.802-19.44 97.986l177.42 73.49c21.908-52.822 34.020-110.73 34.020-171.476s-12.114-118.654-34.020-171.476v0zM683.478 861.98v0 0l-73.49-177.42c-30.184 12.518-63.276 19.44-97.988 19.44s-67.802-6.922-97.986-19.44l-73.49 177.422c52.822 21.904 110.732 34.018 171.476 34.018 60.746 0 118.654-12.114 171.478-34.020zM98.020 619.476l177.422-73.49c-12.518-30.184-19.442-63.276-19.442-97.986s6.922-67.802 19.44-97.986l-177.42-73.49c-21.906 52.822-34.020 110.73-34.020 171.476s12.114 118.654 34.020 171.476zM340.524 34.020l73.49 177.42c30.184-12.518 63.276-19.44 97.986-19.44s67.802 6.922 97.986 19.44l73.49-177.42c-52.822-21.904-110.73-34.020-171.476-34.020-60.744 0-118.654 12.114-171.476 34.020z" />
<glyph unicode="&#xe960;" d="M512 384l256 256h-192v256h-128v-256h-192zM744.726 488.728l-71.74-71.742 260.080-96.986-421.066-157.018-421.066 157.018 260.080 96.986-71.742 71.742-279.272-104.728v-256l512-192 512 192v256z" />
<glyph unicode="&#xe97c;" d="M512 656.904c-32.964 0-59.686 26.724-59.686 59.686v179.060c0 32.964 26.722 59.686 59.686 59.686 32.962 0 59.688-26.722 59.688-59.686v-179.060c0-32.964-26.726-59.686-59.688-59.686zM512-36.956c-20.602 0-37.304 16.702-37.304 37.304v179.060c0 20.602 16.702 37.304 37.304 37.304 20.604 0 37.304-16.704 37.304-37.304v-179.060c0-20.602-16.7-37.304-37.304-37.304zM377.756 624.64c-19.34 0-38.146 10.034-48.512 27.988l-89.53 155.070c-15.452 26.764-6.282 60.986 20.482 76.438 26.762 15.45 60.986 6.284 76.438-20.482l89.53-155.072c15.452-26.764 6.282-60.986-20.482-76.438-8.81-5.084-18.432-7.504-27.926-7.504zM735.856 26.744c-11.602 0-22.886 6.022-29.108 16.792l-89.53 155.070c-9.27 16.056-3.77 36.592 12.29 45.864 16.056 9.264 36.59 3.77 45.864-12.292l89.532-155.068c9.27-16.058 3.768-36.592-12.292-45.864-5.286-3.048-11.060-4.502-16.756-4.502zM279.344 530.060c-8.86 0-17.838 2.256-26.064 7.006l-155.072 89.53c-24.978 14.422-33.538 46.362-19.116 71.342 14.42 24.978 46.364 33.538 71.342 19.116l155.070-89.53c24.98-14.422 33.538-46.362 19.116-71.34-9.668-16.756-27.226-26.124-45.276-26.124zM899.648 194.326c-5.064 0-10.196 1.29-14.894 4.004l-155.068 89.53c-14.274 8.24-19.164 26.494-10.924 40.768 8.242 14.276 26.496 19.166 40.766 10.924l155.070-89.532c14.274-8.24 19.164-26.492 10.924-40.766-5.53-9.574-15.562-14.928-25.874-14.928zM243.41 399.504h-179.060c-26.784 0-48.496 21.712-48.496 48.496s21.712 48.496 48.496 48.496h179.060c26.784 0 48.496-21.712 48.496-48.496s-21.712-48.496-48.496-48.496zM959.65 418.156c-0.002 0 0 0 0 0h-179.060c-16.482 0.002-29.844 13.364-29.844 29.844s13.364 29.844 29.844 29.844c0.002 0 0 0 0 0h179.060c16.482 0 29.844-13.362 29.844-29.844 0-16.48-13.364-29.844-29.844-29.844zM124.366 179.402c-15.472 0-30.518 8.028-38.81 22.39-12.362 21.41-5.026 48.79 16.384 61.148l155.072 89.532c21.41 12.368 48.79 5.028 61.15-16.384 12.362-21.412 5.026-48.79-16.384-61.15l-155.072-89.53c-7.050-4.070-14.748-6.006-22.34-6.006zM744.632 552.448c-10.314 0-20.346 5.352-25.874 14.926-8.24 14.274-3.35 32.526 10.924 40.768l155.070 89.528c14.272 8.236 32.526 3.352 40.768-10.922 8.24-14.274 3.35-32.526-10.924-40.768l-155.070-89.528c-4.7-2.714-9.83-4.004-14.894-4.004zM288.136 19.284c-6.962 0-14.016 1.774-20.48 5.504-19.626 11.332-26.35 36.428-15.020 56.054l89.53 155.070c11.33 19.628 36.426 26.352 56.054 15.022 19.626-11.332 26.35-36.43 15.020-56.054l-89.53-155.072c-7.598-13.166-21.392-20.524-35.574-20.524zM646.266 650.758c-5.062 0-10.196 1.29-14.894 4.002-14.274 8.242-19.164 26.494-10.924 40.766l89.534 155.070c8.24 14.274 26.492 19.166 40.766 10.922 14.274-8.242 19.164-26.494 10.924-40.766l-89.532-155.070c-5.53-9.57-15.56-14.924-25.874-14.924z" />
<glyph unicode="&#xe97d;" d="M192 448c0 12.18 0.704 24.196 2.030 36.022l-184.98 60.104c-5.916-31.14-9.050-63.264-9.050-96.126 0-147.23 62.166-279.922 161.654-373.324l114.284 157.296c-52.124 56.926-83.938 132.758-83.938 216.028zM832 448c0-83.268-31.812-159.102-83.938-216.028l114.284-157.296c99.488 93.402 161.654 226.094 161.654 373.324 0 32.862-3.132 64.986-9.048 96.126l-184.98-60.104c1.324-11.828 2.028-23.842 2.028-36.022zM576 761.592c91.934-18.662 169.544-76.742 214.45-155.826l184.978 60.102c-73.196 155.42-222.24 268.060-399.428 290.156v-194.432zM233.55 605.768c44.906 79.084 122.516 137.164 214.45 155.826v194.43c-177.188-22.096-326.23-134.736-399.426-290.154l184.976-60.102zM644.556 156.672c-40.39-18.408-85.272-28.672-132.556-28.672s-92.166 10.264-132.554 28.67l-114.292-157.31c73.206-40.366 157.336-63.36 246.846-63.36s173.64 22.994 246.848 63.36l-114.292 157.312z" />
<glyph unicode="&#xe991;" d="M1002.934 142.124l-460.552 394.76c21.448 40.298 33.618 86.282 33.618 135.116 0 159.058-128.942 288-288 288-29.094 0-57.172-4.332-83.646-12.354l166.39-166.39c24.89-24.89 24.89-65.62 0-90.51l-101.49-101.49c-24.89-24.89-65.62-24.89-90.51 0l-166.39 166.39c-8.022-26.474-12.354-54.552-12.354-83.646 0-159.058 128.942-288 288-288 48.834 0 94.818 12.17 135.116 33.62l394.76-460.552c22.908-26.724 62.016-28.226 86.904-3.338l101.492 101.492c24.888 24.888 23.386 63.994-3.338 86.902z" />
<glyph unicode="&#xe994;" d="M933.79 349.75c-53.726 93.054-21.416 212.304 72.152 266.488l-100.626 174.292c-28.75-16.854-62.176-26.518-97.846-26.518-107.536 0-194.708 87.746-194.708 195.99h-201.258c0.266-33.41-8.074-67.282-25.958-98.252-53.724-93.056-173.156-124.702-266.862-70.758l-100.624-174.292c28.97-16.472 54.050-40.588 71.886-71.478 53.638-92.908 21.512-211.92-71.708-266.224l100.626-174.292c28.65 16.696 61.916 26.254 97.4 26.254 107.196 0 194.144-87.192 194.7-194.958h201.254c-0.086 33.074 8.272 66.57 25.966 97.218 53.636 92.906 172.776 124.594 266.414 71.012l100.626 174.29c-28.78 16.466-53.692 40.498-71.434 71.228zM512 240.668c-114.508 0-207.336 92.824-207.336 207.334 0 114.508 92.826 207.334 207.336 207.334 114.508 0 207.332-92.826 207.332-207.334-0.002-114.51-92.824-207.334-207.332-207.334z" />
<glyph unicode="&#xe999;" d="M1024 384v64h-193.29c-5.862 72.686-31.786 139.026-71.67 192.25h161.944l70.060 280.24-62.090 15.522-57.94-231.76h-174.68c-0.892 0.694-1.796 1.374-2.698 2.056 6.71 19.502 10.362 40.422 10.362 62.194 0.002 105.76-85.958 191.498-191.998 191.498s-192-85.738-192-191.5c0-21.772 3.65-42.692 10.362-62.194-0.9-0.684-1.804-1.362-2.698-2.056h-174.68l-57.94 231.76-62.090-15.522 70.060-280.24h161.944c-39.884-53.222-65.806-119.562-71.668-192.248h-193.29v-64h193.37c3.802-45.664 15.508-88.812 33.638-127.75h-123.992l-70.060-280.238 62.090-15.524 57.94 231.762h112.354c58.692-78.032 147.396-127.75 246.66-127.75s187.966 49.718 246.662 127.75h112.354l57.94-231.762 62.090 15.524-70.060 280.238h-123.992c18.13 38.938 29.836 82.086 33.636 127.75h193.37z" />
<glyph unicode="&#xe99a;" d="M448 384v448c-247.424 0-448-200.576-448-448s200.576-448 448-448 448 200.576 448 448c0 72.034-17.028 140.084-47.236 200.382l-400.764-200.382zM912.764 712.382c-73.552 146.816-225.374 247.618-400.764 247.618v-448l400.764 200.382z" />
<glyph unicode="&#xe99b;" d="M128 64h896v-128h-1024v1024h128zM288 128c-53.020 0-96 42.98-96 96s42.98 96 96 96c2.828 0 5.622-0.148 8.388-0.386l103.192 171.986c-9.84 15.070-15.58 33.062-15.58 52.402 0 53.020 42.98 96 96 96s96-42.98 96-96c0-19.342-5.74-37.332-15.58-52.402l103.192-171.986c2.766 0.238 5.56 0.386 8.388 0.386 2.136 0 4.248-0.094 6.35-0.23l170.356 298.122c-10.536 15.408-16.706 34.036-16.706 54.11 0 53.020 42.98 96 96 96s96-42.98 96-96c0-53.020-42.98-96-96-96-2.14 0-4.248 0.094-6.35 0.232l-170.356-298.124c10.536-15.406 16.706-34.036 16.706-54.11 0-53.020-42.98-96-96-96s-96 42.98-96 96c0 19.34 5.74 37.332 15.578 52.402l-103.19 171.984c-2.766-0.238-5.56-0.386-8.388-0.386s-5.622 0.146-8.388 0.386l-103.192-171.986c9.84-15.068 15.58-33.060 15.58-52.4 0-53.020-42.98-96-96-96z" />
<glyph unicode="&#xe99c;" d="M0 128h1024v-128h-1024zM128 384h128v-192h-128zM320 640h128v-448h-128zM512 448h128v-256h-128zM704 832h128v-640h-128z" />
<glyph unicode="&#xe9a4;" d="M1011.328 825.504c-110.752 83.928-281.184 134.034-455.91 134.034-216.12 0-392.226-75.456-483.16-207.020-42.708-61.79-66.33-134.958-70.208-217.474-3.454-73.474 8.884-154.726 36.684-242.146 94.874 284.384 359.82 507.102 665.266 507.102 0 0-285.826-75.232-465.524-308.192-0.112-0.138-2.494-3.090-6.614-8.698-36.080-48.278-67.538-103.162-91.078-165.328-39.87-94.83-76.784-224.948-76.784-381.782h128c0 0-19.43 122.222 14.36 262.79 55.89-7.556 105.858-11.306 150.852-11.306 117.678 0 201.37 25.46 263.388 80.124 55.568 48.978 86.198 114.786 118.624 184.456 49.524 106.408 105.654 227.010 268.654 320.152 9.33 5.332 15.362 14.992 16.056 25.716s-4.040 21.080-12.606 27.572z" />
<glyph unicode="&#xe9a8;" d="M1010.174 44.25l-548.634 499.458 25.534 25.598c20.894 20.954 32.188 48.030 33.918 75.61 1.002 0.45 2.002 0.912 2.958 1.442l102.99 64.402c13.934 16.392 12.916 42.268-2.284 57.502l-179.12 179.608c-15.19 15.234-40.998 16.262-57.344 2.284l-64.236-103.268c-0.526-0.966-0.99-1.966-1.44-2.974-27.502-1.736-54.5-13.056-75.398-34.006l-97.428-97.702c-20.898-20.956-32.184-48.026-33.918-75.604-1.004-0.45-2.004-0.916-2.964-1.446l-102.986-64.406c-13.942-16.39-12.916-42.264 2.276-57.496l179.12-179.604c15.194-15.238 40.996-16.262 57.35-2.286l64.228 103.27c0.528 0.958 0.988 1.96 1.442 2.966 27.502 1.738 54.504 13.050 75.398 34.004l28.292 28.372 498.122-550.114c14.436-15.944 36.7-18.518 49.474-5.712l50.356 50.488c12.764 12.808 10.196 35.132-5.706 49.614z" />
<glyph unicode="&#xe9a9;" d="M321.008-64c-68.246 142.008-31.902 223.378 20.55 300.044 57.44 83.956 72.244 167.066 72.244 167.066s45.154-58.7 27.092-150.508c79.772 88.8 94.824 230.28 82.782 284.464 180.314-126.012 257.376-398.856 153.522-601.066 552.372 312.532 137.398 780.172 65.154 832.85 24.082-52.676 28.648-141.85-20-185.126-82.352 312.276-285.972 376.276-285.972 376.276 24.082-161.044-87.296-337.144-194.696-468.73-3.774 64.216-7.782 108.528-41.55 169.98-7.58-116.656-96.732-211.748-120.874-328.628-32.702-158.286 24.496-274.18 241.748-396.622z" />
<glyph unicode="&#xe9af;" d="M768 320.032l-182.82 182.822 438.82 329.15-128.010 127.996-548.52-219.442-172.7 172.706c-49.78 49.778-119.302 61.706-154.502 26.508-35.198-35.198-23.268-104.726 26.51-154.5l172.686-172.684-219.464-548.582 127.99-128.006 329.19 438.868 182.826-182.828v-255.98h127.994l63.992 191.988 191.988 63.996v127.992l-255.98-0.004z" />
<glyph unicode="&#xe9b2;" d="M416 864c0 53.018 42.98 96 96 96s96-42.982 96-96c0-53.020-42.98-96-96-96s-96 42.98-96 96zM640 640l329.596 142.172-23.77 59.424-401.826-137.596h-64l-401.826 137.596-23.77-59.424 329.596-142.172v-256l-131.27-424.57 59.84-22.7 185.716 415.27h27.428l185.716-415.27 59.84 22.7-131.27 424.57z" />
<glyph unicode="&#xe9c3;" d="M892.268 573.51c2.444 11.11 3.732 22.648 3.732 34.49 0 88.366-71.634 160-160 160-14.222 0-28.014-1.868-41.132-5.352-24.798 77.352-97.29 133.352-182.868 133.352-87.348 0-161.054-58.336-184.326-138.17-22.742 6.622-46.792 10.17-71.674 10.17-141.384 0-256-114.616-256-256 0-141.388 114.616-256 256-256h128v-192h256v192h224c88.366 0 160 71.632 160 160 0 78.72-56.854 144.162-131.732 157.51zM576 320v-192h-128v192h-160l224 224 224-224h-160z" />
<glyph unicode="&#xe9da;" d="M755.188 896c-107.63 0-200.258-87.554-243.164-179-42.938 91.444-135.578 179-243.216 179-148.382 0-268.808-120.44-268.808-268.832 0-301.846 304.5-380.994 512.022-679.418 196.154 296.576 511.978 387.206 511.978 679.418 0 148.392-120.43 268.832-268.812 268.832z" />
<glyph unicode="&#xeae3;" d="M928 544c-28.428 0-53.958-12.366-71.536-32h-189.956l134.318 134.318c26.312-1.456 53.11 7.854 73.21 27.956 37.49 37.49 37.49 98.274 0 135.764s-98.274 37.49-135.766 0c-20.102-20.102-29.41-46.898-27.956-73.21l-134.314-134.318v189.954c19.634 17.578 32 43.108 32 71.536 0 53.020-42.98 96-96 96s-96-42.98-96-96c0-28.428 12.366-53.958 32-71.536v-189.954l-134.318 134.318c1.454 26.312-7.856 53.11-27.958 73.21-37.49 37.49-98.274 37.49-135.764 0-37.49-37.492-37.49-98.274 0-135.764 20.102-20.102 46.898-29.412 73.212-27.956l134.32-134.318h-189.956c-17.578 19.634-43.108 32-71.536 32-53.020 0-96-42.98-96-96s42.98-96 96-96c28.428 0 53.958 12.366 71.536 32h189.956l-134.318-134.318c-26.314 1.456-53.11-7.854-73.212-27.956-37.49-37.492-37.49-98.276 0-135.766 37.492-37.49 98.274-37.49 135.764 0 20.102 20.102 29.412 46.898 27.958 73.21l134.316 134.32v-189.956c-19.634-17.576-32-43.108-32-71.536 0-53.020 42.98-96 96-96s96 42.98 96 96c0 28.428-12.366 53.958-32 71.536v189.956l134.318-134.318c-1.456-26.312 7.854-53.11 27.956-73.21 37.492-37.49 98.276-37.49 135.766 0s37.49 98.274 0 135.766c-20.102 20.102-46.898 29.41-73.21 27.956l-134.32 134.316h189.956c17.576-19.634 43.108-32 71.536-32 53.020 0 96 42.98 96 96s-42.982 96-96.002 96z" />
</font>
</defs>
</svg>
